General
Unique ID : 246719636990562069763201733932661345450 (0xB99C7942C139C21EAF6F7D5BED980CAA)
Complete name : D:\SYNC\Priscilla.a.Rainha.do.Deserto.1994.BrRip.720p.DUAL.VET-LIGEIRiNHO.mkv
Format : Matroska
Format version : Version 4 / Version 2
File size : 2.03 GiB
Duration : 1 h 43 min
Overall bit rate : 2 806 kb/s
Movie name : LIGEIRiNHO
Encoded date : UTC 2016-09-30 19:04:09
Writing application : mkvmerge v9.4.0 ('Knurl') 64bit
Writing library : libebml v1.3.4 + libmatroska v1.4.5
Cover : Yes
Attachments : cover.jpg

Video
ID : 1
Format : AVC
Format/Info : Advanced Video Codec
Format profile : High@L4
Format settings, CABAC : Yes
Format settings, ReFrames : 5 frames
Codec ID : V_MPEG4/ISO/AVC
Duration : 1 h 43 min
Bit rate : 1 024 kb/s
Width : 1 280 pixels
Height : 560 pixels
Display aspect ratio : 2.25:1
Frame rate mode : Constant
Frame rate : 23.976 (24000/1001) FPS
Color space : YUV
Chroma subsampling : 4:2:0
Bit depth : 8 bits
Scan type : Progressive
Bits/(Pixel*Frame) : 0.060
Stream size : 757 MiB (36%)
Writing library : x264 core 130 r2273 b3065e6
Encoding settings : cabac=1 / ref=5 / deblock=1:-1:-1 / analyse=0x3:0x133 / me=umh / subme=7 / psy=1 / psy_rd=1.00:0.00 / mixed_ref=1 / me_range=16 / chroma_me=1 / trellis=2 / 8x8dct=1 / cqm=0 / deadzone=21,11 / fast_pskip=1 / chroma_qp_offset=-2 / threads=6 / lookahead_threads=1 / sliced_threads=0 / nr=0 / decimate=1 / interlaced=0 / bluray_compat=0 / constrained_intra=0 / bframes=3 / b_pyramid=0 / b_adapt=2 / b_bias=0 / direct=3 / weightb=1 / open_gop=0 / weightp=2 / keyint=240 / keyint_min=23 / scenecut=40 / intra_refresh=0 / rc_lookahead=40 / rc=2pass / mbtree=1 / bitrate=1024 / ratetol=1.0 / qcomp=0.60 / qpmin=10 / qpmax=51 / qpstep=4 / cplxblur=20.0 / qblur=0.5 / ip_ratio=1.40 / aq=1:1.00
Default : Yes
Forced : No
Color range : Limited
Color primaries : BT.709
Transfer characteristics : BT.709
Matrix coefficients : BT.709

Audio #1
ID : 2
Format : AC-3
Format/Info : Audio Coding 3
Format profile : Dolby Digital
Mode extension : CM (complete main)
Format settings, Endianness : Big
Codec ID : A_AC3
Duration : 1 h 43 min
Bit rate mode : Constant
Bit rate : 256 kb/s
Channel(s) : 2 channels
Channel positions : Front: L R
Sampling rate : 48.0 kHz
Frame rate : 31.250 FPS (1536 spf)
Compression mode : Lossy
Stream size : 189 MiB (9%)
Title : PT-BR AC3 2.0 ~ LIGEIRiNHO
Language : Portuguese
Default : Yes
Forced : No

Audio #2
ID : 3
Format : DTS
Format/Info : Digital Theater Systems
Mode : 16
Format settings, Endianness : Big
Codec ID : A_DTS
Duration : 1 h 43 min
Bit rate mode : Constant
Bit rate : 1 509 kb/s
Channel(s) : 6 channels
Channel positions : Front: L C R, Side: L R, LFE
Sampling rate : 48.0 kHz
Frame rate : 93.750 FPS (512 spf)
Bit depth : 24 bits
Compression mode : Lossy
Delay relative to video : 11 ms
Stream size : 1.09 GiB (54%)
Title : EN-US DTS 5.1 ~ LIGEIRiNHO
Language : English
Default : No
Forced : No

Text
ID : 4
Format : PGS
Muxing mode : zlib
Codec ID : S_HDMV/PGS
Codec ID/Info : Picture based subtitle format used on BDs/HD-DVDs
Duration : 1 h 42 min
Bit rate : 13.9 kb/s
Count of elements : 2794
Stream size : 10.1 MiB (0%)
Title : Legenda PT-BR Bluray ~ LIGEIRiNHO
Language : Portuguese
Default : No
Forced : No

Menu #1
00:00:00.000 : en:00:00:00.000
00:03:45.892 : en:00:03:45.892
00:04:34.566 : en:00:04:34.566
00:06:49.534 : en:00:06:49.534
00:09:02.333 : en:00:09:02.333
00:10:02.227 : en:00:10:02.227
00:12:09.979 : en:00:12:09.979
00:16:26.152 : en:00:16:26.152
00:20:16.257 : en:00:20:16.257
00:23:20.649 : en:00:23:20.649
00:27:25.269 : en:00:27:25.269
00:28:26.705 : en:00:28:26.705
00:31:32.933 : en:00:31:32.933
00:39:57.103 : en:00:39:57.103
00:45:49.580 : en:00:45:49.580
00:46:52.226 : en:00:46:52.226
00:49:12.616 : en:00:49:12.616
00:51:16.365 : en:00:51:16.365
00:55:58.063 : en:00:55:58.063
00:57:38.997 : en:00:57:38.997
01:00:31.336 : en:01:00:31.336
01:02:51.476 : en:01:02:51.476
01:09:53.439 : en:01:09:53.439
01:12:37.061 : en:01:12:37.061
01:16:04.268 : en:01:16:04.268
01:18:58.442 : en:01:18:58.442
01:25:27.831 : en:01:25:27.831
01:28:05.614 : en:01:28:05.614
01:32:03.893 : en:01:32:03.893
01:34:35.086 : en:01:34:35.086
01:36:36.207 : en:01:36:36.207
01:39:52.403 : en:01:39:52.403

Menu #2
00:00:00.000 : en:Chapter 1
00:03:45.934 : en:Chapter 2
00:04:34.607 : en:Chapter 3
00:06:49.575 : en:Chapter 4
00:09:02.375 : en:Chapter 5
00:10:02.268 : en:Chapter 6
00:12:10.020 : en:Chapter 7
00:16:26.276 : en:Chapter 8
00:20:16.298 : en:Chapter 9
00:23:20.732 : en:Chapter 10
00:27:25.352 : en:Chapter 11
00:28:26.746 : en:Chapter 12
00:31:33.057 : en:Chapter 13
00:39:57.144 : en:Chapter 14
00:45:49.621 : en:Chapter 15
00:46:52.309 : en:Chapter 16
00:49:12.658 : en:Chapter 17
00:51:16.406 : en:Chapter 18
00:55:58.104 : en:Chapter 19
00:57:39.038 : en:Chapter 20
01:00:31.377 : en:Chapter 21
01:02:51.517 : en:Chapter 22
01:09:53.522 : en:Chapter 23
01:12:37.102 : en:Chapter 24
01:16:04.393 : en:Chapter 25
01:18:58.483 : en:Chapter 26
01:25:27.872 : en:Chapter 27
01:28:05.822 : en:Chapter 28
01:32:03.935 : en:Chapter 29
01:34:35.127 : en:Chapter 30
01:36:36.290 : en:Chapter 31
01:39:52.444 : en:Chapter 32



Created: 06/10/2016
Views: 25
Online: 0