General
Complete name : C:\Users\---\Downloads\Video\[Hon3y] Pardes - Do Dil Mil Rahe Hine.mp4
Format : MPEG-4
Format profile : Base Media / Version 2
Codec ID : mp42 (mp42/mp41)
File size : 476 MiB
Duration : 6 min 30 s
Overall bit rate mode : Variable
Overall bit rate : 10.2 Mb/s
Encoded date : UTC 2015-06-13 03:32:57
Tagged date : UTC 2015-06-13 03:41:55
TIM : 00:00:04:17
TSC : 25
TSZ : 1

Video
ID : 1
Format : AVC
Format/Info : Advanced Video Codec
Format profile : High@L4
Format settings : CABAC / 3 Ref Frames
Format settings, CABAC : Yes
Format settings, Reference frames : 3 frames
Format settings, GOP : M=3, N=75
Codec ID : avc1
Codec ID/Info : Advanced Video Coding
Duration : 6 min 30 s
Bit rate : 9 918 kb/s
Width : 1 920 pixels
Height : 1 080 pixels
Display aspect ratio : 16:9
Frame rate mode : Constant
Frame rate : 25.000 FPS
Standard : PAL
Color space : YUV
Chroma subsampling : 4:2:0
Bit depth : 8 bits
Scan type : Progressive
Bits/(Pixel*Frame) : 0.191
Stream size : 461 MiB (97%)
Language : English
Encoded date : UTC 2015-06-13 03:32:58
Tagged date : UTC 2015-06-13 03:32:58
Color range : Limited
Color primaries : BT.709
Transfer characteristics : BT.709
Matrix coefficients : BT.709
Codec configuration box : avcC

Audio
ID : 2
Format : AAC LC
Format/Info : Advanced Audio Codec Low Complexity
Codec ID : mp4a-40-2
Duration : 6 min 30 s
Source duration : 6 min 30 s
Bit rate mode : Variable
Bit rate : 317 kb/s
Maximum bit rate : 410 kb/s
Channel(s) : 2 channels
Channel layout : L R
Sampling rate : 48.0 kHz
Frame rate : 46.875 FPS (1024 SPF)
Compression mode : Lossy
Stream size : 14.8 MiB (3%)
Source stream size : 14.8 MiB (3%)
Language : English
Encoded date : UTC 2015-06-13 03:32:58
Tagged date : UTC 2015-06-13 03:32:58
mdhd_Duration : 390293