General

Complete name : www.x265mkv.com_-_Bangalore Naatkal (2016) 720p HD-x265-MP4-715MB-Tamil.mp4
Format : MPEG-4
Format profile : Base Media / Version 2
Codec ID : mp42
File size : 713 MiB
Duration : 2h 29mn
Overall bit rate : 669 Kbps
Writing application : Lavf56.4.101

 

Video

ID : 1
Format : HEVC
Format/Info : High Efficiency Video Coding
Format profile : Main@L3.1@Main
Codec ID : hev1
Codec ID/Info : High Efficiency Video Coding
Duration : 2h 29mn
Bit rate : 569 Kbps
Width : 1 280 pixels
Height : 544 pixels
Display aspect ratio : 2.35:1
Frame rate mode : Constant
Frame rate : 25.000 fps
Color space : YUV
Chroma subsampling : 4:2:0
Bit depth : 8 bits
Scan type : Progressive
Bits/(Pixel*Frame) : 0.033
Stream size : 606 MiB (85%)
Writing library : x265 1.3+362-4b7c473c3ef4:[Linux][GCC 4.8.3][64 bit]
Encoding settings : wpp / ctu=64 / tu-intra-depth=1 / tu-inter-depth=1 / me=1 / subme=2 / merange=60 / rect / amp / max-merge=2 / no-early-skip / no-fast-cbf / rdpenalty=0 / no-tskip / no-tskip-fast / strong-intra-smoothing / no-lossless / no-cu-lossless / no-constrained-intra / no-fast-intra / open-gop / interlace=0 / keyint=300 / min-keyint=25 / scenecut=40 / rc-lookahead=20 / bframes=4 / bframe-bias=0 / b-adapt=2 / ref=3 / weightp / no-weightb / aq-mode=2 / aq-strength=1.00 / cbqpoffs=0 / crqpoffs=0 / rd=3 / psy-rd=0.00 / psy-rdoq=0.00 / signhide / lft / sao / no-sao-non-deblock / b-pyramid / cutree / rc=2 / pass / bitrate=568 / ratetol=1.0 / qcomp=0.60 / qpmin=0 / qpmax=51 / qpstep=4 / cplxblur=20.0 / qblur=0.5 / ipratio=1.40 / pbratio=1.30
Tagged date : UTC 2016-03-05 10:37:57

 

Audio

ID : 2
Format : AAC
Format/Info : Advanced Audio Codec
Format profile : LC
Codec ID : 40
Duration : 2h 29mn
Bit rate mode : Constant
Bit rate : 96.0 Kbps
Channel(s) : 2 channels
Channel positions : Front: L R
Sampling rate : 44.1 KHz
Compression mode : Lossy
Stream size : 102 MiB (14%)
Language : English
Tagged date : UTC 2016-03-05 10:37:57


Created: 05/03/2016
Views: 98
Online: 0