JustPaste.it
Format                                   : Matroska
Format version                           : Version 4
File size                                : 6.36 GiB
Duration                                 : 2 h 33 min
Overall bit rate                         : 5 934 kb/s
Movie name                               : Harry Potter and the Half-Blood Prince (2009) UHD 1080p Bluray x264 Dual Audio [ Hindi DDP5.1 + English DTS5.1 ] MSubs [www.MoviezAddiction.co]
Encoded date                             : UTC 2021-09-04 05:20:42
Writing application                      : mkvmerge v47.0.0 ('Black Flag') 64-bit
Writing library                          : libebml v1.3.10 + libmatroska v1.5.2
 
Video
ID                                       : 1
Format                                   : AVC
Format/Info                              : Advanced Video Codec
Format profile                           : High@L5
Format settings                          : CABAC / 5 Ref Frames
Format settings, CABAC                   : Yes
Format settings, Reference frames        : 5 frames
Codec ID                                 : V_MPEG4/ISO/AVC
Duration                                 : 2 h 33 min
Bit rate                                 : 4 500 kb/s
Width                                    : 1 920 pixels
Height                                   : 800 pixels
Display aspect ratio                     : 2.40:1
Frame rate mode                          : Constant
Frame rate                               : 23.976 (24000/1001) FPS
Color space                              : YUV
Chroma subsampling                       : 4:2:0
Bit depth                                : 8 bits
Scan type                                : Progressive
Bits/(Pixel*Frame)                       : 0.122
Stream size                              : 4.82 GiB (76%)
Title                                    : [www.MoviezAddiction.co]
Writing library                          : x264 core 163 r3059+11 1aa8b82 [Mod by Patman]
Encoding settings                        : cabac=1 / ref=5 / deblock=1:0:0 / analyse=0x3:0x113 / me=hex / subme=8 / psy=1 / psy_rd=1.00:0.00 / mixed_ref=1 / me_range=16 / chroma_me=1 / trellis=2 / 8x8dct=1 / cqm=0 / deadzone=21,11 / fast_pskip=1 / chroma_qp_offset=-2 / threads=25 / lookahead_threads=4 / sliced_threads=0 / nr=0 / decimate=1 / interlaced=0 / bluray_compat=0 / constrained_intra=0 / bframes=3 / b_pyramid=2 / b_adapt=1 / b_bias=0 / direct=3 / weightb=1 / open_gop=0 / weightp=2 / keyint=250 / keyint_min=23 / scenecut=40 / intra_refresh=0 / rc_lookahead=50 / rc=2pass / mbtree=1 / bitrate=4500 / ratetol=1.0 / qcomp=0.60 / qpmin=0 / qpmax=69 / qpstep=4 / cplxblur=20.0 / qblur=0.5 / ip_ratio=1.40 / aq=1:1.00
Language                                 : English
Default                                  : Yes
Forced                                   : No
 
Audio #1
ID                                       : 2
Format                                   : DTS
Format/Info                              : Digital Theater Systems
Codec ID                                 : A_DTS
Duration                                 : 2 h 33 min
Bit rate mode                            : Constant
Bit rate                                 : 768 kb/s
Channel(s)                               : 6 channels
Channel layout                           : C L R Ls Rs LFE
Sampling rate                            : 48.0 kHz
Frame rate                               : 93.750 FPS (512 SPF)
Bit depth                                : 16 bits
Compression mode                         : Lossy
Stream size                              : 843 MiB (13%)
Title                                    : [www.MoviezAddiction.co]
Language                                 : English
Default                                  : No
Forced                                   : No
 
Audio #2
ID                                       : 4
Format                                   : E-AC-3
Format/Info                              : Enhanced AC-3
Commercial name                          : Dolby Digital Plus
Codec ID                                 : A_EAC3
Duration                                 : 2 h 33 min
Bit rate mode                            : Constant
Bit rate                                 : 640 kb/s
Channel(s)                               : 6 channels
Channel layout                           : L R C LFE Ls Rs
Sampling rate                            : 48.0 kHz
Frame rate                               : 31.250 FPS (1536 SPF)
Compression mode                         : Lossy
Delay relative to video                  : 958 ms
Stream size                              : 703 MiB (11%)
Title                                    : [www.MoviezAddiction.co]
Language                                 : Hindi
Service kind                             : Complete Main
Default                                  : Yes
Forced                                   : Yes
 
Text #1
ID                                       : 3
Format                                   : PGS
Muxing mode                              : zlib
Codec ID                                 : S_HDMV/PGS
Codec ID/Info                            : Picture based subtitle format used on BDs/HD-DVDs
Duration                                 : 2 h 33 min
Bit rate                                 : 28.1 kb/s
Count of elements                        : 3042
Stream size                              : 30.8 MiB (0%)
Title                                    : [www.MoviezAddiction.co]
Language                                 : English
Default                                  : No
Forced                                   : No
 
Text #2
ID                                       : 5
Format                                   : PGS
Muxing mode                              : zlib
Codec ID                                 : S_HDMV/PGS
Codec ID/Info                            : Picture based subtitle format used on BDs/HD-DVDs
Duration                                 : 2 h 26 min
Bit rate                                 : 24.1 kb/s
Count of elements                        : 3624
Stream size                              : 25.2 MiB (0%)
Title                                    : [www.MoviezAddiction.co]
Language                                 : Hindi
Default                                  : Yes
Forced                                   : Yes
 
Text #3
ID                                       : 6
Format                                   : UTF-8
Codec ID                                 : S_TEXT/UTF8
Codec ID/Info                            : UTF-8 Plain Text
Duration                                 : 2 h 26 min
Bit rate                                 : 133 b/s
Count of elements                        : 1812
Stream size                              : 143 KiB (0%)
Title                                    : [www.MoviezAddiction.co]
Language                                 : Hindi
Default                                  : No
Forced                                   : No
 
Menu
00:00:00.000                             : Chapter 1
00:05:28.453                             : Chapter 2
00:12:13.899                             : Chapter 3
00:14:57.104                             : Chapter 4
00:18:43.163                             : Chapter 5
00:22:30.474                             : Chapter 6
00:27:35.987                             : Chapter 7
00:32:04.589                             : Chapter 8
00:37:48.182                             : Chapter 9
00:44:48.310                             : Chapter 10
00:49:31.718                             : Chapter 11
00:54:55.333                             : Chapter 12
01:00:00.263                             : Chapter 13
01:03:09.619                             : Chapter 14
01:05:57.119                             : Chapter 15
01:09:13.649                             : Chapter 16
01:14:00.060                             : Chapter 17
01:21:09.739                             : Chapter 18
01:26:31.436                             : Chapter 19
01:33:37.361                             : Chapter 20
01:39:57.282                             : Chapter 21
01:43:16.231                             : Chapter 22
01:48:24.706                             : Chapter 23
01:52:30.076                             : Chapter 24
01:56:53.631                             : Chapter 25
02:02:11.699                             : Chapter 26
02:08:33.497                             : Chapter 27
02:15:00.258                             : Chapter 28
02:19:08.006                             : Chapter 29
02:23:54.083                             : Chapter 30