JustPaste.it
Format                                   : Matroska
Format version                           : Version 4
File size                                : 4.29 GiB
Duration                                 : 1 h 43 min
Overall bit rate                         : 5 920 kb/s
Movie name                               : Beverly Hills Cop II (1987) REMASTERED 1080p Bluray x264 Dual Audio [ Hindi DDP5.1 + English DTS5.1 ] MSubs [www.MoviezAddiction.co]
Encoded date                             : UTC 2021-09-05 04:40:18
Writing application                      : mkvmerge v47.0.0 ('Black Flag') 64-bit
Writing library                          : libebml v1.3.10 + libmatroska v1.5.2
 
Video
ID                                       : 1
Format                                   : AVC
Format/Info                              : Advanced Video Codec
Format profile                           : High@L4
Format settings                          : CABAC / 5 Ref Frames
Format settings, CABAC                   : Yes
Format settings, Reference frames        : 5 frames
Codec ID                                 : V_MPEG4/ISO/AVC
Duration                                 : 1 h 42 min
Bit rate                                 : 4 500 kb/s
Width                                    : 1 920 pixels
Height                                   : 816 pixels
Display aspect ratio                     : 2.35:1
Frame rate mode                          : Constant
Frame rate                               : 23.976 (24000/1001) FPS
Color space                              : YUV
Chroma subsampling                       : 4:2:0
Bit depth                                : 8 bits
Scan type                                : Progressive
Bits/(Pixel*Frame)                       : 0.120
Stream size                              : 3.24 GiB (75%)
Title                                    : [www.MoviezAddiction.co]
Writing library                          : x264 core 161 r3039+17 c76b8b8 (DJATOM's mod)
Encoding settings                        : cabac=1 / ref=5 / deblock=1:0:0 / analyse=0x3:0x113 / me=hex / subme=8 / psy=1 / fade_compensate=0.00 / psy_rd=1.00:0.00 / mixed_ref=1 / me_range=16 / chroma_me=1 / trellis=2 / 8x8dct=1 / cqm=0 / deadzone=21,11 / fast_pskip=1 / chroma_qp_offset=-2 / threads=25 / lookahead_threads=4 / sliced_threads=0 / nr=0 / decimate=1 / interlaced=0 / bluray_compat=0 / constrained_intra=0 / bframes=3 / b_pyramid=2 / b_adapt=1 / b_bias=0 / direct=3 / weightb=1 / open_gop=0 / weightp=2 / keyint=250 / keyint_min=23 / scenecut=40 / intra_refresh=0 / rc_lookahead=50 / rc=2pass / mbtree=1 / bitrate=4500 / ratetol=1.0 / qcomp=0.60 / qpmin=0 / qpmax=69 / qpstep=4 / cplxblur=20.0 / qblur=0.5 / ip_ratio=1.40 / aq=1:1.00
Language                                 : English
Default                                  : Yes
Forced                                   : No
 
Audio #1
ID                                       : 2
Format                                   : DTS
Format/Info                              : Digital Theater Systems
Codec ID                                 : A_DTS
Duration                                 : 1 h 42 min
Bit rate mode                            : Constant
Bit rate                                 : 768 kb/s
Channel(s)                               : 6 channels
Channel layout                           : C L R Ls Rs LFE
Sampling rate                            : 48.0 kHz
Frame rate                               : 93.750 FPS (512 SPF)
Bit depth                                : 16 bits
Compression mode                         : Lossy
Stream size                              : 566 MiB (13%)
Title                                    : [www.MoviezAddiction.co]
Language                                 : English
Default                                  : No
Forced                                   : No
 
Audio #2
ID                                       : 5
Format                                   : E-AC-3
Format/Info                              : Enhanced AC-3
Commercial name                          : Dolby Digital Plus
Codec ID                                 : A_EAC3
Duration                                 : 1 h 43 min
Bit rate mode                            : Constant
Bit rate                                 : 640 kb/s
Channel(s)                               : 6 channels
Channel layout                           : L R C LFE Ls Rs
Sampling rate                            : 48.0 kHz
Frame rate                               : 31.250 FPS (1536 SPF)
Compression mode                         : Lossy
Delay relative to video                  : 22 ms
Stream size                              : 475 MiB (11%)
Title                                    : [www.MoviezAddiction.co]
Language                                 : Hindi
Service kind                             : Complete Main
Default                                  : Yes
Forced                                   : Yes
 
Text #1
ID                                       : 3
Format                                   : PGS
Muxing mode                              : zlib
Codec ID                                 : S_HDMV/PGS
Codec ID/Info                            : Picture based subtitle format used on BDs/HD-DVDs
Duration                                 : 1 h 42 min
Bit rate                                 : 62.9 kb/s
Count of elements                        : 2568
Stream size                              : 45.9 MiB (1%)
Title                                    : [www.MoviezAddiction.co]
Language                                 : English
Default                                  : No
Forced                                   : No
 
Text #2
ID                                       : 4
Format                                   : PGS
Muxing mode                              : zlib
Codec ID                                 : S_HDMV/PGS
Codec ID/Info                            : Picture based subtitle format used on BDs/HD-DVDs
Duration                                 : 1 h 42 min
Bit rate                                 : 66.9 kb/s
Count of elements                        : 2816
Stream size                              : 48.9 MiB (1%)
Title                                    : [www.MoviezAddiction.co]
Language                                 : English
Default                                  : No
Forced                                   : No
 
Text #3
ID                                       : 6
Format                                   : PGS
Muxing mode                              : zlib
Codec ID                                 : S_HDMV/PGS
Codec ID/Info                            : Picture based subtitle format used on BDs/HD-DVDs
Duration                                 : 1 h 42 min
Bit rate                                 : 621 b/s
Count of elements                        : 92
Stream size                              : 467 KiB (0%)
Title                                    : [www.MoviezAddiction.co]
Language                                 : Hindi
Default                                  : No
Forced                                   : Yes
 
Text #4
ID                                       : 7
Format                                   : PGS
Muxing mode                              : zlib
Codec ID                                 : S_HDMV/PGS
Codec ID/Info                            : Picture based subtitle format used on BDs/HD-DVDs
Duration                                 : 1 h 42 min
Bit rate                                 : 32.3 kb/s
Count of elements                        : 2812
Stream size                              : 23.7 MiB (1%)
Title                                    : [www.MoviezAddiction.co]
Language                                 : Hindi
Default                                  : Yes
Forced                                   : Yes
 
Menu
00:00:00.000                             : en:Chapter 01
00:02:51.838                             : en:Chapter 02
00:09:17.056                             : en:Chapter 03
00:14:30.286                             : en:Chapter 04
00:22:11.621                             : en:Chapter 05
00:29:30.101                             : en:Chapter 06
00:46:25.741                             : en:Chapter 07
00:52:24.933                             : en:Chapter 08
01:02:05.722                             : en:Chapter 09
01:15:37.366                             : en:Chapter 10
01:23:45.520                             : en:Chapter 11
01:36:35.790                             : en:Chapter 12
01:38:53.344                             : en:Chapter 13