JustPaste.it
Format                                   : Matroska
Format version                           : Version 4
File size                                : 1.33 GiB
Duration                                 : 2 h 1 min
Overall bit rate                         : 1 571 kb/s
Movie name                               : Hellboy (2019) UHD 720p Bluray x264 Dual Audio [ Hindi AAC5.1 + English AAC5.1 ] ESubs [www.MoviezAddiction.xyz]
Encoded date                             : UTC 2021-10-05 05:20:13
Writing application                      : mkvmerge v47.0.0 ('Black Flag') 64-bit
Writing library                          : libebml v1.3.10 + libmatroska v1.5.2
 
Video
ID                                       : 5
Format                                   : AVC
Format/Info                              : Advanced Video Codec
Format profile                           : High@L4.2
Format settings                          : CABAC / 4 Ref Frames
Format settings, CABAC                   : Yes
Format settings, Reference frames        : 4 frames
Codec ID                                 : V_MPEG4/ISO/AVC
Duration                                 : 2 h 1 min
Bit rate                                 : 1 150 kb/s
Width                                    : 1 280 pixels
Height                                   : 536 pixels
Display aspect ratio                     : 2.40:1
Frame rate mode                          : Constant
Frame rate                               : 23.976 (24000/1001) FPS
Color space                              : YUV
Chroma subsampling                       : 4:2:0
Bit depth                                : 8 bits
Scan type                                : Progressive
Bits/(Pixel*Frame)                       : 0.070
Stream size                              : 995 MiB (73%)
Title                                    : [www.MoviezAddiction.xyz]
Writing library                          : x264 core 163 r3059+11 1aa8b82 [Mod by Patman]
Encoding settings                        : cabac=1 / ref=3 / deblock=1:0:0 / analyse=0x3:0x113 / me=hex / subme=7 / psy=1 / psy_rd=1.00:0.00 / mixed_ref=1 / me_range=16 / chroma_me=1 / trellis=1 / 8x8dct=1 / cqm=0 / deadzone=21,11 / fast_pskip=1 / chroma_qp_offset=-2 / threads=17 / lookahead_threads=2 / sliced_threads=0 / nr=0 / decimate=1 / interlaced=0 / bluray_compat=0 / constrained_intra=0 / bframes=3 / b_pyramid=2 / b_adapt=1 / b_bias=0 / direct=1 / weightb=1 / open_gop=0 / weightp=2 / keyint=250 / keyint_min=23 / scenecut=40 / intra_refresh=0 / rc_lookahead=40 / rc=2pass / mbtree=1 / bitrate=1150 / ratetol=1.0 / qcomp=0.60 / qpmin=0 / qpmax=69 / qpstep=4 / cplxblur=20.0 / qblur=0.5 / ip_ratio=1.40 / aq=1:1.00
Language                                 : English
Default                                  : Yes
Forced                                   : No
 
Audio #1
ID                                       : 1
Format                                   : AAC LC SBR
Format/Info                              : Advanced Audio Codec Low Complexity with Spectral Band Replication
Commercial name                          : HE-AAC
Format settings                          : Explicit
Codec ID                                 : A_AAC-2
Duration                                 : 2 h 0 min
Bit rate                                 : 192 kb/s
Channel(s)                               : 6 channels
Channel layout                           : C L R Ls Rs LFE
Sampling rate                            : 48.0 kHz
Frame rate                               : 23.438 FPS (2048 SPF)
Compression mode                         : Lossy
Delay relative to video                  : 17 s 447 ms
Stream size                              : 165 MiB (12%)
Title                                    : [www.MoviezAddiction.xyz]
Language                                 : Hindi
Default                                  : Yes
Forced                                   : Yes
 
Audio #2
ID                                       : 2
Format                                   : AAC LC SBR
Format/Info                              : Advanced Audio Codec Low Complexity with Spectral Band Replication
Commercial name                          : HE-AAC
Format settings                          : Explicit
Codec ID                                 : A_AAC-2
Duration                                 : 2 h 1 min
Bit rate                                 : 192 kb/s
Channel(s)                               : 6 channels
Channel layout                           : C L R Ls Rs LFE
Sampling rate                            : 48.0 kHz
Frame rate                               : 23.438 FPS (2048 SPF)
Compression mode                         : Lossy
Stream size                              : 165 MiB (12%)
Title                                    : [www.MoviezAddiction.xyz]
Language                                 : English
Default                                  : No
Forced                                   : No
 
Text #1
ID                                       : 3
Format                                   : PGS
Muxing mode                              : zlib
Codec ID                                 : S_HDMV/PGS
Codec ID/Info                            : Picture based subtitle format used on BDs/HD-DVDs
Duration                                 : 2 h 0 min
Bit rate                                 : 36.1 kb/s
Count of elements                        : 2726
Stream size                              : 31.1 MiB (2%)
Title                                    : [www.MoviezAddiction.xyz]
Language                                 : English
Default                                  : No
Forced                                   : No
 
Text #2
ID                                       : 4
Format                                   : PGS
Muxing mode                              : zlib
Codec ID                                 : S_HDMV/PGS
Codec ID/Info                            : Picture based subtitle format used on BDs/HD-DVDs
Duration                                 : 2 h 0 min
Bit rate                                 : 43.2 kb/s
Count of elements                        : 3464
Stream size                              : 37.2 MiB (3%)
Title                                    : [www.MoviezAddiction.xyz]
Language                                 : English
Default                                  : Yes
Forced                                   : Yes
 
Menu
00:00:00.000                             : Chapter 1
00:08:54.284                             : Chapter 2
00:14:41.714                             : Chapter 3
00:22:34.853                             : Chapter 4
00:30:12.602                             : Chapter 5
00:35:48.730                             : Chapter 6
00:43:50.461                             : Chapter 7
00:53:17.611                             : Chapter 8
01:01:09.791                             : Chapter 9
01:09:24.786                             : Chapter 10
01:17:32.606                             : Chapter 11
01:26:07.579                             : Chapter 12
01:28:37.896                             : Chapter 13
01:37:58.456                             : Chapter 14
01:45:49.969                             : Chapter 15
01:51:06.660                             : Chapter 16