JustPaste.it
Format                                   : Matroska
Format version                           : Version 4
File size                                : 2.07 GiB
Duration                                 : 1 h 45 min
Overall bit rate                         : 2 808 kb/s
Movie name                               : Jay and Silent Bob Reboot (2019) 1080p Bluray x265 10bit HEVC Dual Audio [ Hindi DDP5.1 + English AAC5.1 ] ESubs [www.MoviezAddiction.co]
Encoded date                             : UTC 2021-09-10 05:16:21
Writing application                      : mkvmerge v47.0.0 ('Black Flag') 64-bit
Writing library                          : libebml v1.3.10 + libmatroska v1.5.2
 
Video
ID                                       : 3
Format                                   : HEVC
Format/Info                              : High Efficiency Video Coding
Format profile                           : Main 10@L4@Main
Codec ID                                 : V_MPEGH/ISO/HEVC
Duration                                 : 1 h 45 min
Bit rate                                 : 1 930 kb/s
Width                                    : 1 920 pixels
Height                                   : 808 pixels
Display aspect ratio                     : 2.40:1
Frame rate mode                          : Constant
Frame rate                               : 23.976 (24000/1001) FPS
Color space                              : YUV
Chroma subsampling                       : 4:2:0
Bit depth                                : 10 bits
Bits/(Pixel*Frame)                       : 0.052
Stream size                              : 1.42 GiB (69%)
Title                                    : [www.MoviezAddiction.co]
Language                                 : English
Default                                  : Yes
Forced                                   : No
 
Audio #1
ID                                       : 2
Format                                   : E-AC-3
Format/Info                              : Enhanced AC-3
Commercial name                          : Dolby Digital Plus
Codec ID                                 : A_EAC3
Duration                                 : 1 h 45 min
Bit rate mode                            : Constant
Bit rate                                 : 640 kb/s
Channel(s)                               : 6 channels
Channel layout                           : L R C LFE Ls Rs
Sampling rate                            : 48.0 kHz
Frame rate                               : 31.250 FPS (1536 SPF)
Compression mode                         : Lossy
Delay relative to video                  : 1 s 470 ms
Stream size                              : 482 MiB (23%)
Title                                    : [www.MoviezAddiction.co]
Language                                 : Hindi
Service kind                             : Complete Main
Default                                  : Yes
Forced                                   : Yes
 
Audio #2
ID                                       : 4
Format                                   : AAC LC SBR
Format/Info                              : Advanced Audio Codec Low Complexity with Spectral Band Replication
Commercial name                          : HE-AAC
Format settings                          : Explicit
Codec ID                                 : A_AAC-2
Duration                                 : 1 h 45 min
Bit rate                                 : 204 kb/s
Channel(s)                               : 6 channels
Channel layout                           : C L R Ls Rs LFE
Sampling rate                            : 48.0 kHz
Frame rate                               : 23.438 FPS (2048 SPF)
Compression mode                         : Lossy
Delay relative to video                  : 23 ms
Stream size                              : 154 MiB (7%)
Title                                    : [www.MoviezAddiction.co]
Language                                 : English
Default                                  : No
Forced                                   : No
 
Text #1
ID                                       : 1
Format                                   : PGS
Muxing mode                              : zlib
Codec ID                                 : S_HDMV/PGS
Codec ID/Info                            : Picture based subtitle format used on BDs/HD-DVDs
Duration                                 : 1 h 44 min
Bit rate                                 : 67.9 kb/s
Count of elements                        : 3936
Stream size                              : 50.5 MiB (2%)
Title                                    : [www.MoviezAddiction.co]
Language                                 : English
Default                                  : Yes
Forced                                   : Yes
 
Text #2
ID                                       : 5
Format                                   : UTF-8
Codec ID                                 : S_TEXT/UTF8
Codec ID/Info                            : UTF-8 Plain Text
Duration                                 : 1 h 43 min
Bit rate                                 : 87 b/s
Count of elements                        : 1887
Stream size                              : 66.3 KiB (0%)
Title                                    : [www.MoviezAddiction.co]
Language                                 : English
Default                                  : No
Forced                                   : No
 
Menu
00:00:00.000                             : en:Chapter 1
00:03:38.676                             : en:Chapter 2
00:09:30.653                             : en:Chapter 3
00:16:32.658                             : en:Chapter 4
00:24:10.323                             : en:Chapter 5
00:30:43.633                             : en:Chapter 6
00:40:34.014                             : en:Chapter 7
00:44:53.941                             : en:Chapter 8
00:48:46.715                             : en:Chapter 9
00:54:34.020                             : en:Chapter 10
00:59:26.729                             : en:Chapter 11
01:07:03.227                             : en:Chapter 12
01:10:01.905                             : en:Chapter 13
01:16:08.480                             : en:Chapter 14
01:25:37.215                             : en:Chapter 15
01:32:39.345                             : en:Chapter 16