JustPaste.it
Format                                   : Matroska
Format version                           : Version 4
File size                                : 10.3 GiB
Duration                                 : 1 h 37 min
Overall bit rate                         : 15.1 Mb/s
Movie name                               : Venom - Let There Be Carnage (2021) 2160p WEB-DL DV x265 English DA5.1 ESubs [www.MoviezAddiction.top]
Encoded date                             : UTC 2021-11-23 10:58:09
Writing application                      : mkvmerge v47.0.0 ('Black Flag') 64-bit
Writing library                          : libebml v1.3.10 + libmatroska v1.5.2
 
Video
ID                                       : 1
Format                                   : V_QUICKTIME
Codec ID                                 : V_QUICKTIME
Duration                                 : 1 h 37 min
Bit rate                                 : 14.3 Mb/s
Width                                    : 3 840 pixels
Height                                   : 2 072 pixels
Display aspect ratio                     : 1.85:1
Frame rate mode                          : Constant
Frame rate                               : 23.976 (24000/1001) FPS
Bits/(Pixel*Frame)                       : 0.075
Stream size                              : 9.73 GiB (95%)
Title                                    : [www.MoviezAddiction.top]
Language                                 : English
Default                                  : Yes
Forced                                   : No
 
Audio
ID                                       : 2
Format                                   : E-AC-3 JOC
Format/Info                              : Enhanced AC-3 with Joint Object Coding
Commercial name                          : Dolby Digital Plus with Dolby Atmos
Codec ID                                 : A_EAC3
Duration                                 : 1 h 37 min
Bit rate mode                            : Constant
Bit rate                                 : 768 kb/s
Channel(s)                               : 6 channels
Channel layout                           : L R C LFE Ls Rs
Sampling rate                            : 48.0 kHz
Frame rate                               : 31.250 FPS (1536 SPF)
Compression mode                         : Lossy
Stream size                              : 534 MiB (5%)
Title                                    : [www.MoviezAddiction.top]
Language                                 : English
Service kind                             : Complete Main
Default                                  : Yes
Forced                                   : No
Complexity index                         : 16
Number of dynamic objects                : 15
Bed channel count                        : 1 channel
Bed channel configuration                : LFE
 
Text #1
ID                                       : 3
Format                                   : UTF-8
Codec ID                                 : S_TEXT/UTF8
Codec ID/Info                            : UTF-8 Plain Text
Duration                                 : 1 h 36 min
Bit rate                                 : 71 b/s
Count of elements                        : 1863
Stream size                              : 50.5 KiB (0%)
Title                                    : [www.MoviezAddiction.top]-SDH
Language                                 : English
Default                                  : Yes
Forced                                   : Yes
 
Text #2
ID                                       : 4
Format                                   : UTF-8
Codec ID                                 : S_TEXT/UTF8
Codec ID/Info                            : UTF-8 Plain Text
Duration                                 : 1 h 35 min
Bit rate                                 : 56 b/s
Count of elements                        : 1657
Stream size                              : 40.0 KiB (0%)
Title                                    : [www.MoviezAddiction.top]
Language                                 : English
Default                                  : No
Forced                                   : No
 
Menu
00:00:00.000                             : en:Chapter 1
00:05:25.949                             : en:Chapter 2
00:11:33.485                             : en:Chapter 3
00:18:22.434                             : en:Chapter 4
00:23:00.630                             : en:Chapter 5
00:30:27.160                             : en:Chapter 6
00:35:03.769                             : en:Chapter 7
00:43:09.130                             : en:Chapter 8
00:47:27.347                             : en:Chapter 9
00:54:53.418                             : en:Chapter 10
01:01:32.817                             : en:Chapter 11
01:06:19.478                             : en:Chapter 12
01:11:49.184                             : en:Chapter 13
01:18:03.725                             : en:Chapter 14
01:21:52.494                             : en:Chapter 15
01:26:41.326                             : en:Chapter 16