JustPaste.it
Format                                   : Matroska
Format version                           : Version 4
File size                                : 4.46 GiB
Duration                                 : 1 h 51 min
Overall bit rate                         : 5 728 kb/s
Movie name                               : Malignant (2021) 1080p Bluray x264 Dual Audio [ Hindi BD5.1 + English DTS5.1 ] MSubs [www.MoviezAddiction.top]
Encoded date                             : UTC 2021-11-22 12:15:57
Writing application                      : mkvmerge v47.0.0 ('Black Flag') 64-bit
Writing library                          : libebml v1.3.10 + libmatroska v1.5.2
 
Video
ID                                       : 1
Format                                   : AVC
Format/Info                              : Advanced Video Codec
Format profile                           : High@L4
Format settings                          : CABAC / 5 Ref Frames
Format settings, CABAC                   : Yes
Format settings, Reference frames        : 5 frames
Codec ID                                 : V_MPEG4/ISO/AVC
Duration                                 : 1 h 51 min
Bit rate                                 : 4 500 kb/s
Width                                    : 1 920 pixels
Height                                   : 800 pixels
Display aspect ratio                     : 2.40:1
Frame rate mode                          : Constant
Frame rate                               : 23.976 (24000/1001) FPS
Color space                              : YUV
Chroma subsampling                       : 4:2:0
Bit depth                                : 8 bits
Scan type                                : Progressive
Bits/(Pixel*Frame)                       : 0.122
Stream size                              : 3.50 GiB (79%)
Title                                    : [www.MoviezAddiction.top]
Writing library                          : x264 core 161 r3039+17 c76b8b8 (DJATOM's mod)
Encoding settings                        : cabac=1 / ref=5 / deblock=1:0:0 / analyse=0x3:0x113 / me=hex / subme=8 / psy=1 / fade_compensate=0.00 / psy_rd=1.00:0.00 / mixed_ref=1 / me_range=16 / chroma_me=1 / trellis=2 / 8x8dct=1 / cqm=0 / deadzone=21,11 / fast_pskip=1 / chroma_qp_offset=-2 / threads=25 / lookahead_threads=4 / sliced_threads=0 / nr=0 / decimate=1 / interlaced=0 / bluray_compat=0 / constrained_intra=0 / bframes=3 / b_pyramid=2 / b_adapt=1 / b_bias=0 / direct=3 / weightb=1 / open_gop=0 / weightp=2 / keyint=250 / keyint_min=23 / scenecut=40 / intra_refresh=0 / rc_lookahead=50 / rc=2pass / mbtree=1 / bitrate=4500 / ratetol=1.0 / qcomp=0.60 / qpmin=0 / qpmax=69 / qpstep=4 / cplxblur=20.0 / qblur=0.5 / ip_ratio=1.40 / aq=1:1.00
Language                                 : English
Default                                  : Yes
Forced                                   : No
 
Audio #1
ID                                       : 2
Format                                   : DTS
Format/Info                              : Digital Theater Systems
Codec ID                                 : A_DTS
Duration                                 : 1 h 51 min
Bit rate mode                            : Constant
Bit rate                                 : 768 kb/s
Channel(s)                               : 6 channels
Channel layout                           : C L R Ls Rs LFE
Sampling rate                            : 48.0 kHz
Frame rate                               : 93.750 FPS (512 SPF)
Bit depth                                : 16 bits
Compression mode                         : Lossy
Stream size                              : 613 MiB (13%)
Title                                    : [www.MoviezAddiction.top]
Language                                 : English
Default                                  : No
Forced                                   : No
 
Audio #2
ID                                       : 5
Format                                   : AC-3
Format/Info                              : Audio Coding 3
Commercial name                          : Dolby Digital
Codec ID                                 : A_AC3
Duration                                 : 1 h 51 min
Bit rate mode                            : Constant
Bit rate                                 : 448 kb/s
Channel(s)                               : 6 channels
Channel layout                           : L R C LFE Ls Rs
Sampling rate                            : 48.0 kHz
Frame rate                               : 31.250 FPS (1536 SPF)
Compression mode                         : Lossy
Delay relative to video                  : 100 ms
Stream size                              : 358 MiB (8%)
Title                                    : [www.MoviezAddiction.top]
Language                                 : Hindi
Service kind                             : Complete Main
Default                                  : Yes
Forced                                   : No
 
Text #1
ID                                       : 3
Format                                   : PGS
Muxing mode                              : zlib
Codec ID                                 : S_HDMV/PGS
Codec ID/Info                            : Picture based subtitle format used on BDs/HD-DVDs
Duration                                 : 1 h 47 min
Bit rate                                 : 29.3 kb/s
Count of elements                        : 2792
Stream size                              : 22.5 MiB (0%)
Title                                    : [www.MoviezAddiction.top]
Language                                 : English
Default                                  : No
Forced                                   : Yes
 
Text #2
ID                                       : 4
Format                                   : PGS
Muxing mode                              : zlib
Codec ID                                 : S_HDMV/PGS
Codec ID/Info                            : Picture based subtitle format used on BDs/HD-DVDs
Duration                                 : 1 h 37 min
Bit rate                                 : 372 b/s
Count of elements                        : 56
Stream size                              : 266 KiB (0%)
Title                                    : [www.MoviezAddiction.top]
Language                                 : Hindi
Default                                  : Yes
Forced                                   : Yes
 
Menu
00:00:00.000                             : :Chapter 01
00:06:11.204                             : :Chapter 02
00:15:46.821                             : :Chapter 03
00:25:23.564                             : :Chapter 04
00:32:45.672                             : :Chapter 05
00:42:28.838                             : :Chapter 06
00:51:13.696                             : :Chapter 07
00:59:30.275                             : :Chapter 08
01:05:55.451                             : :Chapter 09
01:14:59.078                             : :Chapter 10
01:24:05.332                             : :Chapter 11
01:33:50.750                             : :Chapter 12
01:39:24.041                             : :Chapter 13
01:47:28.067                             : :Chapter 14