JustPaste.it
Format                                   : Matroska
Format version                           : Version 4
File size                                : 1.26 GiB
Duration                                 : 2 h 2 min
Overall bit rate                         : 1 483 kb/s
Movie name                               : Training Day (2001) 720p Bluray x264 Dual Audio [ Hindi AAC2.0 + English AAC5.1 ] ESubs [www.MoviezAddiction.co]
Encoded date                             : UTC 2021-09-05 14:40:56
Writing application                      : mkvmerge v47.0.0 ('Black Flag') 64-bit
Writing library                          : libebml v1.3.10 + libmatroska v1.5.2
 
Video
ID                                       : 3
Format                                   : AVC
Format/Info                              : Advanced Video Codec
Format profile                           : High@L4.2
Format settings                          : CABAC / 4 Ref Frames
Format settings, CABAC                   : Yes
Format settings, Reference frames        : 4 frames
Codec ID                                 : V_MPEG4/ISO/AVC
Duration                                 : 2 h 2 min
Bit rate                                 : 1 150 kb/s
Width                                    : 1 280 pixels
Height                                   : 544 pixels
Display aspect ratio                     : 2.35:1
Frame rate mode                          : Constant
Frame rate                               : 23.976 (24000/1001) FPS
Color space                              : YUV
Chroma subsampling                       : 4:2:0
Bit depth                                : 8 bits
Scan type                                : Progressive
Bits/(Pixel*Frame)                       : 0.069
Stream size                              : 1 003 MiB (78%)
Title                                    : [www.MoviezAddiction.co]
Writing library                          : x264 core 161 r3039+17 c76b8b8 (DJATOM's mod)
Encoding settings                        : cabac=1 / ref=3 / deblock=1:0:0 / analyse=0x3:0x113 / me=hex / subme=7 / psy=1 / fade_compensate=0.00 / psy_rd=1.00:0.00 / mixed_ref=1 / me_range=16 / chroma_me=1 / trellis=1 / 8x8dct=1 / cqm=0 / deadzone=21,11 / fast_pskip=1 / chroma_qp_offset=-2 / threads=17 / lookahead_threads=2 / sliced_threads=0 / nr=0 / decimate=1 / interlaced=0 / bluray_compat=0 / constrained_intra=0 / bframes=3 / b_pyramid=2 / b_adapt=1 / b_bias=0 / direct=1 / weightb=1 / open_gop=0 / weightp=2 / keyint=250 / keyint_min=23 / scenecut=40 / intra_refresh=0 / rc_lookahead=40 / rc=2pass / mbtree=1 / bitrate=1150 / ratetol=1.0 / qcomp=0.60 / qpmin=0 / qpmax=69 / qpstep=4 / cplxblur=20.0 / qblur=0.5 / ip_ratio=1.40 / aq=1:1.00
Language                                 : English
Default                                  : Yes
Forced                                   : No
 
Audio #1
ID                                       : 1
Format                                   : AAC LC
Format/Info                              : Advanced Audio Codec Low Complexity
Codec ID                                 : A_AAC-2
Duration                                 : 2 h 1 min
Bit rate                                 : 109 kb/s
Channel(s)                               : 2 channels
Channel layout                           : L R
Sampling rate                            : 48.0 kHz
Frame rate                               : 46.875 FPS (1024 SPF)
Compression mode                         : Lossy
Delay relative to video                  : 14 s 738 ms
Stream size                              : 95.2 MiB (7%)
Title                                    : [www.MoviezAddiction.co]
Language                                 : Hindi
Default                                  : Yes
Forced                                   : Yes
 
Audio #2
ID                                       : 2
Format                                   : AAC LC SBR
Format/Info                              : Advanced Audio Codec Low Complexity with Spectral Band Replication
Commercial name                          : HE-AAC
Format settings                          : Explicit
Codec ID                                 : A_AAC-2
Duration                                 : 2 h 2 min
Bit rate                                 : 192 kb/s
Channel(s)                               : 6 channels
Channel layout                           : C L R Ls Rs LFE
Sampling rate                            : 48.0 kHz
Frame rate                               : 23.438 FPS (2048 SPF)
Compression mode                         : Lossy
Stream size                              : 166 MiB (13%)
Title                                    : [www.MoviezAddiction.co]
Language                                 : English
Default                                  : No
Forced                                   : No
 
Text #1
ID                                       : 4
Format                                   : PGS
Muxing mode                              : zlib
Codec ID                                 : S_HDMV/PGS
Codec ID/Info                            : Picture based subtitle format used on BDs/HD-DVDs
Duration                                 : 1 h 54 min
Bit rate                                 : 50.0 kb/s
Count of elements                        : 2734
Stream size                              : 40.9 MiB (3%)
Title                                    : [www.MoviezAddiction.co]
Language                                 : English
Default                                  : No
Forced                                   : No
 
Text #2
ID                                       : 5
Format                                   : PGS
Muxing mode                              : zlib
Codec ID                                 : S_HDMV/PGS
Codec ID/Info                            : Picture based subtitle format used on BDs/HD-DVDs
Duration                                 : 2 h 0 min
Bit rate                                 : 49.9 kb/s
Count of elements                        : 2842
Stream size                              : 43.2 MiB (3%)
Title                                    : [www.MoviezAddiction.co]
Language                                 : English
Default                                  : Yes
Forced                                   : Yes
 
Menu
00:00:00.000                             : en:It's Today
00:03:53.524                             : en:Tell Me a Story
00:08:02.356                             : en:Leave Family Out
00:12:20.072                             : en:Drug Roust
00:15:37.394                             : en:Narcotics in His Blood
00:20:35.943                             : en:Joking with Roger
00:25:42.290                             : en:Alley Incident
00:32:13.931                             : en:It Takes a Wolf
00:36:12.670                             : en:Collaring Sammy
00:40:41.063                             : en:Sandman's Wife
00:45:20.467                             : en:Firing Line
00:47:15.207                             : en:Wolf or Sheep?
00:49:24.002                             : en:Mother and Son
00:55:04.259                             : en:Lapd's Finest
00:59:59.762                             : en:The Unit Punches In
01:02:56.272                             : en:Roger Out of His Misery
01:09:56.859                             : en:The Scenario
01:15:08.253                             : en:This Is the Game
01:20:29.699                             : en:Five-Card Draw
01:24:17.385                             : en:The Drop on the Cop
01:29:26.277                             : en:Smiley's Cousin
01:33:27.602                             : en:"I'm Here for Alonzo"
01:37:21.335                             : en:Preserving Life
01:41:25.579                             : en:Rooftop Battle
01:45:00.210                             : en:What Jake Learned Today
01:48:44.184                             : en:"You Can't Kill Me"
01:52:39.961                             : en:Going Home
01:55:43.144                             : en:End Credits (W.O.L.V.E.S., American Dream, #1)