JustPaste.it
Format                                   : Matroska
Format version                           : Version 4
File size                                : 1.99 GiB
Duration                                 : 2 h 2 min
Overall bit rate                         : 2 333 kb/s
Movie name                               : Training Day (2001) 1080p Bluray x265 10bit HEVC Dual Audio [ Hindi AAC2.0 + English AAC5.1 ] ESubs [www.MoviezAddiction.co]
Encoded date                             : UTC 2021-09-05 14:39:30
Writing application                      : mkvmerge v47.0.0 ('Black Flag') 64-bit
Writing library                          : libebml v1.3.10 + libmatroska v1.5.2
 
Video
ID                                       : 2
Format                                   : HEVC
Format/Info                              : High Efficiency Video Coding
Format profile                           : Main 10@L4@Main
Codec ID                                 : V_MPEGH/ISO/HEVC
Duration                                 : 2 h 2 min
Bit rate                                 : 2 000 kb/s
Width                                    : 1 920 pixels
Height                                   : 816 pixels
Display aspect ratio                     : 2.35:1
Frame rate mode                          : Constant
Frame rate                               : 23.976 (24000/1001) FPS
Color space                              : YUV
Chroma subsampling                       : 4:2:0
Bit depth                                : 10 bits
Bits/(Pixel*Frame)                       : 0.053
Stream size                              : 1.70 GiB (86%)
Title                                    : [www.MoviezAddiction.co]
Writing library                          : x265 3.4+70-90fa80a85:[DJATOM's Mod][Windows][GCC 10.2.1][64 bit] 10bit
Encoding settings                        : cpuid=1111039 / frame-threads=5 / numa-pools=64,0,0,0 / wpp / no-pmode / no-pme / no-psnr / no-ssim / log-level=2 / input-csp=1 / input-res=1920x816 / interlace=0 / total-frames=58523 / level-idc=0 / high-tier=1 / uhd-bd=0 / ref=4 / no-allow-non-conformance / no-repeat-headers / annexb / no-aud / no-hrd / info / hash=0 / no-temporal-layers / open-gop / min-keyint=23 / keyint=250 / gop-lookahead=0 / bframes=4 / b-adapt=2 / b-pyramid / bframe-bias=0 / rc-lookahead=25 / lookahead-slices=4 / scenecut=40 / hist-scenecut=0 / radl=0 / no-splice / no-intra-refresh / ctu=64 / min-cu-size=8 / rect / no-amp / max-tu-size=32 / tu-inter-depth=1 / tu-intra-depth=1 / limit-tu=0 / rdoq-level=2 / dynamic-rd=0.00 / no-ssim-rd / signhide / no-tskip / nr-intra=0 / nr-inter=0 / no-constrained-intra / strong-intra-smoothing / max-merge=3 / limit-refs=3 / limit-modes / me=3 / subme=3 / merange=57 / temporal-mvp / no-frame-dup / no-hme / weightp / no-weightb / no-analyze-src-pics / deblock=0:0 / sao / no-sao-non-deblock / rd=4 / selective-sao=4 / no-early-skip / rskip / no-fast-intra / no-tskip-fast / no-cu-lossless / no-b-intra / no-splitrd-skip / rdpenalty=0 / psy-rd=2.00 / psy-rdoq=1.00 / no-rd-refine / no-lossless / cbqpoffs=0 / crqpoffs=0 / rc=abr / bitrate=2000 / qcomp=0.60 / qpstep=4 / stats-write=0 / stats-read=2 / cplxblur=20.0 / qblur=0.5 / ipratio=1.40 / pbratio=1.30 / aq-mode=2 / aq-strength=1.00 / cutree / zone-count=0 / no-strict-cbr / qg-size=32 / no-rc-grain / qpmax=69 / qpmin=0 / no-const-vbv / sar=0 / overscan=0 / videoformat=5 / range=0 / colorprim=2 / transfer=2 / colormatrix=2 / chromaloc=0 / display-window=0 / cll=0,0 / min-luma=0 / max-luma=1023 / log2-max-poc-lsb=8 / vui-timing-info / vui-hrd-info / slices=1 / no-opt-qp-pps / no-opt-ref-list-length-pps / no-multi-pass-opt-rps / scenecut-bias=0.05 / hist-threshold=0.03 / no-opt-cu-delta-qp / no-aq-motion / no-hdr10 / no-hdr10-opt / no-dhdr10-opt / no-idr-recovery-sei / analysis-reuse-level=0 / analysis-save-reuse-level=0 / analysis-load-reuse-level=0 / scale-factor=0 / refine-intra=0 / refine-inter=0 / refine-mv=1 / refine-ctu-distortion=0 / no-limit-sao / ctu-info=0 / no-lowpass-dct / refine-analysis-type=0 / copy-pic=1 / max-ausize-factor=1.0 / no-dynamic-refine / no-single-sei / no-hevc-aq / no-svt / no-field / qp-adaptation-range=1.00 / no-scenecut-aware-qpconformance-window-offsets / right=0 / bottom=0 / decoder-max-rate=0 / no-vbv-live-multi-pass
Language                                 : English
Default                                  : Yes
Forced                                   : No
 
Audio #1
ID                                       : 1
Format                                   : AAC LC
Format/Info                              : Advanced Audio Codec Low Complexity
Codec ID                                 : A_AAC-2
Duration                                 : 2 h 1 min
Bit rate                                 : 109 kb/s
Channel(s)                               : 2 channels
Channel layout                           : L R
Sampling rate                            : 48.0 kHz
Frame rate                               : 46.875 FPS (1024 SPF)
Compression mode                         : Lossy
Delay relative to video                  : 14 s 738 ms
Stream size                              : 95.2 MiB (5%)
Title                                    : [www.MoviezAddiction.co]
Language                                 : Hindi
Default                                  : Yes
Forced                                   : Yes
 
Audio #2
ID                                       : 5
Format                                   : AAC LC SBR
Format/Info                              : Advanced Audio Codec Low Complexity with Spectral Band Replication
Commercial name                          : HE-AAC
Format settings                          : Explicit
Codec ID                                 : A_AAC-2
Duration                                 : 2 h 2 min
Bit rate                                 : 192 kb/s
Channel(s)                               : 6 channels
Channel layout                           : C L R Ls Rs LFE
Sampling rate                            : 48.0 kHz
Frame rate                               : 23.438 FPS (2048 SPF)
Compression mode                         : Lossy
Stream size                              : 166 MiB (8%)
Title                                    : [www.MoviezAddiction.co]
Language                                 : English
Default                                  : No
Forced                                   : No
 
Text #1
ID                                       : 3
Format                                   : PGS
Muxing mode                              : zlib
Codec ID                                 : S_HDMV/PGS
Codec ID/Info                            : Picture based subtitle format used on BDs/HD-DVDs
Duration                                 : 1 h 54 min
Bit rate                                 : 50.0 kb/s
Count of elements                        : 2734
Stream size                              : 40.9 MiB (2%)
Title                                    : [www.MoviezAddiction.co]
Language                                 : English
Default                                  : No
Forced                                   : No
 
Text #2
ID                                       : 4
Format                                   : PGS
Muxing mode                              : zlib
Codec ID                                 : S_HDMV/PGS
Codec ID/Info                            : Picture based subtitle format used on BDs/HD-DVDs
Duration                                 : 2 h 0 min
Bit rate                                 : 49.9 kb/s
Count of elements                        : 2842
Stream size                              : 43.2 MiB (2%)
Title                                    : [www.MoviezAddiction.co]
Language                                 : English
Default                                  : Yes
Forced                                   : Yes
 
Menu
00:00:00.000                             : en:It's Today
00:03:53.524                             : en:Tell Me a Story
00:08:02.356                             : en:Leave Family Out
00:12:20.072                             : en:Drug Roust
00:15:37.394                             : en:Narcotics in His Blood
00:20:35.943                             : en:Joking with Roger
00:25:42.290                             : en:Alley Incident
00:32:13.931                             : en:It Takes a Wolf
00:36:12.670                             : en:Collaring Sammy
00:40:41.063                             : en:Sandman's Wife
00:45:20.467                             : en:Firing Line
00:47:15.207                             : en:Wolf or Sheep?
00:49:24.002                             : en:Mother and Son
00:55:04.259                             : en:Lapd's Finest
00:59:59.762                             : en:The Unit Punches In
01:02:56.272                             : en:Roger Out of His Misery
01:09:56.859                             : en:The Scenario
01:15:08.253                             : en:This Is the Game
01:20:29.699                             : en:Five-Card Draw
01:24:17.385                             : en:The Drop on the Cop
01:29:26.277                             : en:Smiley's Cousin
01:33:27.602                             : en:"I'm Here for Alonzo"
01:37:21.335                             : en:Preserving Life
01:41:25.579                             : en:Rooftop Battle
01:45:00.210                             : en:What Jake Learned Today
01:48:44.184                             : en:"You Can't Kill Me"
01:52:39.961                             : en:Going Home
01:55:43.144                             : en:End Credits (W.O.L.V.E.S., American Dream, #1)