JustPaste.it
Format                                   : Matroska
Format version                           : Version 4
File size                                : 896 MiB
Duration                                 : 1 h 36 min
Overall bit rate                         : 1 293 kb/s
Movie name                               : Primal (2019) 720p Bluray x265 10bit HEVC Dual Audio [ Hindi AAC5.1 + English AAC5.1 ] ESubs [www.MoviezAddiction.xyz]
Encoded date                             : UTC 2021-10-06 11:38:34
Writing application                      : mkvmerge v47.0.0 ('Black Flag') 64-bit
Writing library                          : libebml v1.3.10 + libmatroska v1.5.2
 
Video
ID                                       : 3
Format                                   : HEVC
Format/Info                              : High Efficiency Video Coding
Format profile                           : Main 10@L3.1@Main
Codec ID                                 : V_MPEGH/ISO/HEVC
Duration                                 : 1 h 36 min
Bit rate                                 : 863 kb/s
Width                                    : 1 280 pixels
Height                                   : 536 pixels
Display aspect ratio                     : 2.40:1
Frame rate mode                          : Constant
Frame rate                               : 23.976 (24000/1001) FPS
Color space                              : YUV
Chroma subsampling                       : 4:2:0
Bit depth                                : 10 bits
Bits/(Pixel*Frame)                       : 0.052
Stream size                              : 598 MiB (67%)
Title                                    : [www.MoviezAddiction.xyz]
Language                                 : English
Default                                  : Yes
Forced                                   : No
 
Audio #1
ID                                       : 4
Format                                   : AAC LC SBR
Format/Info                              : Advanced Audio Codec Low Complexity with Spectral Band Replication
Commercial name                          : HE-AAC
Format settings                          : Explicit
Codec ID                                 : A_AAC-2
Duration                                 : 1 h 36 min
Bit rate                                 : 211 kb/s
Channel(s)                               : 6 channels
Channel layout                           : C L R Ls Rs LFE
Sampling rate                            : 48.0 kHz
Frame rate                               : 23.438 FPS (2048 SPF)
Compression mode                         : Lossy
Delay relative to video                  : 23 ms
Stream size                              : 146 MiB (16%)
Title                                    : [www.MoviezAddiction.xyz]
Language                                 : English
Default                                  : No
Forced                                   : No
 
Audio #2
ID                                       : 6
Format                                   : AAC LC SBR
Format/Info                              : Advanced Audio Codec Low Complexity with Spectral Band Replication
Commercial name                          : HE-AAC
Format settings                          : Explicit
Codec ID                                 : A_AAC-2
Duration                                 : 1 h 36 min
Bit rate                                 : 192 kb/s
Channel(s)                               : 6 channels
Channel layout                           : C L R Ls Rs LFE
Sampling rate                            : 48.0 kHz
Frame rate                               : 23.438 FPS (2048 SPF)
Compression mode                         : Lossy
Delay relative to video                  : 138 ms
Stream size                              : 132 MiB (15%)
Title                                    : [www.MoviezAddiction.xyz]
Language                                 : Hindi
Default                                  : Yes
Forced                                   : Yes
 
Text #1
ID                                       : 1
Format                                   : PGS
Muxing mode                              : zlib
Codec ID                                 : S_HDMV/PGS
Codec ID/Info                            : Picture based subtitle format used on BDs/HD-DVDs
Duration                                 : 1 h 33 min
Bit rate                                 : 28.2 kb/s
Count of elements                        : 1992
Stream size                              : 19.0 MiB (2%)
Title                                    : [www.MoviezAddiction.xyz]
Language                                 : English
Default                                  : No
Forced                                   : No
 
Text #2
ID                                       : 2
Format                                   : PGS
Muxing mode                              : zlib
Codec ID                                 : S_HDMV/PGS
Codec ID/Info                            : Picture based subtitle format used on BDs/HD-DVDs
Duration                                 : 1 h 36 min
Bit rate                                 : 31.4 kb/s
Count of elements                        : 2352
Stream size                              : 21.7 MiB (2%)
Title                                    : [www.MoviezAddiction.xyz]
Language                                 : English
Default                                  : Yes
Forced                                   : Yes
 
Text #3
ID                                       : 5
Format                                   : UTF-8
Codec ID                                 : S_TEXT/UTF8
Codec ID/Info                            : UTF-8 Plain Text
Duration                                 : 1 h 34 min
Bit rate                                 : 48 b/s
Count of elements                        : 998
Stream size                              : 33.5 KiB (0%)
Title                                    : [www.MoviezAddiction.xyz]
Language                                 : English
Default                                  : No
Forced                                   : No
 
Menu
00:00:00.000                             : en:Chapter 1
00:10:15.114                             : en:Chapter 2
00:18:51.463                             : en:Chapter 3
00:24:53.492                             : en:Chapter 4
00:27:28.313                             : en:Chapter 5
00:33:18.830                             : en:Chapter 6
00:42:31.048                             : en:Chapter 7
00:50:53.550                             : en:Chapter 8
01:00:48.186                             : en:Chapter 9
01:06:42.498                             : en:Chapter 10
01:15:28.190                             : en:Chapter 11
01:32:29.710                             : en:Chapter 12