JustPaste.it
Format                                   : Matroska
Format version                           : Version 4
File size                                : 1.13 GiB
Duration                                 : 1 h 42 min
Overall bit rate                         : 1 573 kb/s
Movie name                               : Enter the Dragon (1973) UHD 720p Bluray x264 Dual Audio [ Hindi DD2.0 + English AAC5.1 ] ESub [www.MoviezAddiction.xyz]
Encoded date                             : UTC 2021-10-06 03:41:53
Writing application                      : mkvmerge v47.0.0 ('Black Flag') 64-bit
Writing library                          : libebml v1.3.10 + libmatroska v1.5.2
 
Video
ID                                       : 4
Format                                   : AVC
Format/Info                              : Advanced Video Codec
Format profile                           : High@L4.2
Format settings                          : CABAC / 4 Ref Frames
Format settings, CABAC                   : Yes
Format settings, Reference frames        : 4 frames
Codec ID                                 : V_MPEG4/ISO/AVC
Duration                                 : 1 h 42 min
Bit rate                                 : 1 150 kb/s
Width                                    : 1 280 pixels
Height                                   : 536 pixels
Display aspect ratio                     : 2.40:1
Frame rate mode                          : Constant
Frame rate                               : 23.976 (24000/1001) FPS
Color space                              : YUV
Chroma subsampling                       : 4:2:0
Bit depth                                : 8 bits
Scan type                                : Progressive
Bits/(Pixel*Frame)                       : 0.070
Stream size                              : 844 MiB (73%)
Title                                    : [www.MoviezAddiction.xyz]
Writing library                          : x264 core 161 r3039+17 c76b8b8 (DJATOM's mod)
Encoding settings                        : cabac=1 / ref=3 / deblock=1:0:0 / analyse=0x3:0x113 / me=hex / subme=7 / psy=1 / fade_compensate=0.00 / psy_rd=1.00:0.00 / mixed_ref=1 / me_range=16 / chroma_me=1 / trellis=1 / 8x8dct=1 / cqm=0 / deadzone=21,11 / fast_pskip=1 / chroma_qp_offset=-2 / threads=17 / lookahead_threads=2 / sliced_threads=0 / nr=0 / decimate=1 / interlaced=0 / bluray_compat=0 / constrained_intra=0 / bframes=3 / b_pyramid=2 / b_adapt=1 / b_bias=0 / direct=1 / weightb=1 / open_gop=0 / weightp=2 / keyint=250 / keyint_min=23 / scenecut=40 / intra_refresh=0 / rc_lookahead=40 / rc=2pass / mbtree=1 / bitrate=1150 / ratetol=1.0 / qcomp=0.60 / qpmin=0 / qpmax=69 / qpstep=4 / cplxblur=20.0 / qblur=0.5 / ip_ratio=1.40 / aq=1:1.00
Language                                 : English
Default                                  : Yes
Forced                                   : No
 
Audio #1
ID                                       : 1
Format                                   : AC-3
Format/Info                              : Audio Coding 3
Commercial name                          : Dolby Digital
Codec ID                                 : A_AC3
Duration                                 : 1 h 42 min
Bit rate mode                            : Constant
Bit rate                                 : 224 kb/s
Channel(s)                               : 2 channels
Channel layout                           : L R
Sampling rate                            : 48.0 kHz
Frame rate                               : 31.250 FPS (1536 SPF)
Compression mode                         : Lossy
Stream size                              : 164 MiB (14%)
Title                                    : [www.MoviezAddiction.xyz]
Language                                 : Hindi
Service kind                             : Complete Main
Default                                  : Yes
Forced                                   : Yes
 
Audio #2
ID                                       : 2
Format                                   : AAC LC SBR
Format/Info                              : Advanced Audio Codec Low Complexity with Spectral Band Replication
Commercial name                          : HE-AAC
Format settings                          : Explicit
Codec ID                                 : A_AAC-2
Duration                                 : 1 h 42 min
Bit rate                                 : 192 kb/s
Channel(s)                               : 6 channels
Channel layout                           : C L R Ls Rs LFE
Sampling rate                            : 48.0 kHz
Frame rate                               : 23.438 FPS (2048 SPF)
Compression mode                         : Lossy
Stream size                              : 140 MiB (12%)
Title                                    : [www.MoviezAddiction.xyz]
Language                                 : English
Default                                  : No
Forced                                   : No
 
Text
ID                                       : 3
Format                                   : PGS
Muxing mode                              : zlib
Codec ID                                 : S_HDMV/PGS
Codec ID/Info                            : Picture based subtitle format used on BDs/HD-DVDs
Duration                                 : 1 h 41 min
Bit rate                                 : 14.1 kb/s
Count of elements                        : 1104
Stream size                              : 10.2 MiB (1%)
Title                                    : [www.MoviezAddiction.xyz]
Language                                 : English
Default                                  : Yes
Forced                                   : Yes
 
Menu
00:00:00.000                             : en:Chapter 1
00:02:28.982                             : en:Chapter 2
00:05:28.411                             : en:Chapter 3
00:08:26.172                             : en:Chapter 4
00:10:40.556                             : en:Chapter 5
00:14:39.211                             : en:Chapter 6
00:20:16.048                             : en:Chapter 7
00:25:08.215                             : en:Chapter 8
00:27:40.909                             : en:Chapter 9
00:31:33.766                             : en:Chapter 10
00:34:03.750                             : en:Chapter 11
00:39:00.004                             : en:Chapter 12
00:41:53.427                             : en:Chapter 13
00:45:20.968                             : en:Chapter 14
00:46:35.375                             : en:Chapter 15
00:50:48.045                             : en:Chapter 16
00:55:11.433                             : en:Chapter 17
00:57:56.055                             : en:Chapter 18
01:00:35.965                             : en:Chapter 19
01:05:27.632                             : en:Chapter 20
01:09:00.094                             : en:Chapter 21
01:11:25.072                             : en:Chapter 22
01:16:00.889                             : en:Chapter 23
01:20:09.846                             : en:Chapter 24
01:25:08.895                             : en:Chapter 25
01:28:51.576                             : en:Chapter 26
01:31:36.991                             : en:Chapter 27
01:35:14.417                             : en:Chapter 28
01:40:23.976                             : en:Chapter 29