JustPaste.it
Format                                   : Matroska
Format version                           : Version 4
File size                                : 4.89 GiB
Duration                                 : 1 h 37 min
Overall bit rate                         : 7 201 kb/s
Movie name                               : Venom - Let There Be Carnage (2021) 1080p WEB-DL x264 English DDP5.1 ESubs [www.MoviezAddiction.top]
Encoded date                             : UTC 2021-11-23 05:14:30
Writing application                      : mkvmerge v47.0.0 ('Black Flag') 64-bit
Writing library                          : libebml v1.3.10 + libmatroska v1.5.2
 
Video
ID                                       : 1
Format                                   : AVC
Format/Info                              : Advanced Video Codec
Format profile                           : High@L4
Format settings                          : CABAC / 4 Ref Frames
Format settings, CABAC                   : Yes
Format settings, Reference frames        : 4 frames
Codec ID                                 : V_MPEG4/ISO/AVC
Duration                                 : 1 h 37 min
Bit rate mode                            : Constant
Bit rate                                 : 6 559 kb/s
Nominal bit rate                         : 10 000 kb/s
Width                                    : 1 920 pixels
Height                                   : 1 040 pixels
Display aspect ratio                     : 1.85:1
Frame rate mode                          : Constant
Frame rate                               : 23.976 (24000/1001) FPS
Color space                              : YUV
Chroma subsampling                       : 4:2:0
Bit depth                                : 8 bits
Scan type                                : Progressive
Bits/(Pixel*Frame)                       : 0.137
Stream size                              : 4.46 GiB (91%)
Title                                    : [www.MoviezAddiction.top]
Language                                 : English
Default                                  : Yes
Forced                                   : No
Color range                              : Limited
Color primaries                          : BT.709
Transfer characteristics                 : BT.709
Matrix coefficients                      : BT.709
 
Audio
ID                                       : 2
Format                                   : E-AC-3
Format/Info                              : Enhanced AC-3
Commercial name                          : Dolby Digital Plus
Codec ID                                 : A_EAC3
Duration                                 : 1 h 37 min
Bit rate mode                            : Constant
Bit rate                                 : 640 kb/s
Channel(s)                               : 6 channels
Channel layout                           : L R C LFE Ls Rs
Sampling rate                            : 48.0 kHz
Frame rate                               : 31.250 FPS (1536 SPF)
Compression mode                         : Lossy
Stream size                              : 445 MiB (9%)
Title                                    : [www.MoviezAddiction.top]
Language                                 : English
Service kind                             : Complete Main
Default                                  : No
Forced                                   : No
 
Text #1
ID                                       : 3
Format                                   : UTF-8
Codec ID                                 : S_TEXT/UTF8
Codec ID/Info                            : UTF-8 Plain Text
Duration                                 : 1 h 35 min
Bit rate                                 : 56 b/s
Count of elements                        : 1657
Stream size                              : 40.0 KiB (0%)
Title                                    : [www.MoviezAddiction.top]
Language                                 : English
Default                                  : No
Forced                                   : No
 
Text #2
ID                                       : 4
Format                                   : UTF-8
Codec ID                                 : S_TEXT/UTF8
Codec ID/Info                            : UTF-8 Plain Text
Duration                                 : 1 h 36 min
Bit rate                                 : 71 b/s
Count of elements                        : 1863
Stream size                              : 50.5 KiB (0%)
Title                                    : [www.MoviezAddiction.top]-[SDH]
Language                                 : English
Default                                  : Yes
Forced                                   : Yes