JustPaste.it
Format                                   : Matroska
Format version                           : Version 4
File size                                : 1.33 GiB
Duration                                 : 2 h 3 min
Overall bit rate                         : 1 548 kb/s
Movie name                               : The Outpost (2020) 720p Bluray x264 Dual Audio [ Hindi AAC2.0 + English AAC5.1 ] ESub [www.MoviezAddiction.xyz]
Encoded date                             : UTC 2021-10-07 18:47:03
Writing application                      : mkvmerge v47.0.0 ('Black Flag') 64-bit
Writing library                          : libebml v1.3.10 + libmatroska v1.5.2
 
Video
ID                                       : 1
Format                                   : AVC
Format/Info                              : Advanced Video Codec
Format profile                           : High@L4.2
Format settings                          : CABAC / 4 Ref Frames
Format settings, CABAC                   : Yes
Format settings, Reference frames        : 4 frames
Codec ID                                 : V_MPEG4/ISO/AVC
Duration                                 : 2 h 3 min
Bit rate                                 : 1 150 kb/s
Width                                    : 1 280 pixels
Height                                   : 696 pixels
Display aspect ratio                     : 1.85:1
Frame rate mode                          : Constant
Frame rate                               : 23.976 (24000/1001) FPS
Color space                              : YUV
Chroma subsampling                       : 4:2:0
Bit depth                                : 8 bits
Scan type                                : Progressive
Bits/(Pixel*Frame)                       : 0.054
Stream size                              : 1 012 MiB (74%)
Title                                    : [www.MoviezAddiction.xyz]
Writing library                          : x264 core 161 r3039+17 c76b8b8 (DJATOM's mod)
Encoding settings                        : cabac=1 / ref=3 / deblock=1:0:0 / analyse=0x3:0x113 / me=hex / subme=7 / psy=1 / fade_compensate=0.00 / psy_rd=1.00:0.00 / mixed_ref=1 / me_range=16 / chroma_me=1 / trellis=1 / 8x8dct=1 / cqm=0 / deadzone=21,11 / fast_pskip=1 / chroma_qp_offset=-2 / threads=22 / lookahead_threads=3 / sliced_threads=0 / nr=0 / decimate=1 / interlaced=0 / bluray_compat=0 / constrained_intra=0 / bframes=3 / b_pyramid=2 / b_adapt=1 / b_bias=0 / direct=1 / weightb=1 / open_gop=0 / weightp=2 / keyint=250 / keyint_min=23 / scenecut=40 / intra_refresh=0 / rc_lookahead=40 / rc=2pass / mbtree=1 / bitrate=1150 / ratetol=1.0 / qcomp=0.60 / qpmin=0 / qpmax=69 / qpstep=4 / cplxblur=20.0 / qblur=0.5 / ip_ratio=1.40 / aq=1:1.00
Language                                 : English
Default                                  : Yes
Forced                                   : No
Color range                              : Limited
Color primaries                          : BT.709
Transfer characteristics                 : BT.709
Matrix coefficients                      : BT.709
 
Audio #1
ID                                       : 3
Format                                   : AAC LC SBR
Format/Info                              : Advanced Audio Codec Low Complexity with Spectral Band Replication
Commercial name                          : HE-AAC
Format settings                          : Explicit
Codec ID                                 : A_AAC-2
Duration                                 : 2 h 3 min
Bit rate                                 : 192 kb/s
Channel(s)                               : 6 channels
Channel layout                           : C L R Ls Rs LFE
Sampling rate                            : 48.0 kHz
Frame rate                               : 23.438 FPS (2048 SPF)
Compression mode                         : Lossy
Stream size                              : 168 MiB (12%)
Title                                    : [www.MoviezAddiction.xyz]
Language                                 : English
Default                                  : No
Forced                                   : No
 
Audio #2
ID                                       : 4
Format                                   : AAC LC
Format/Info                              : Advanced Audio Codec Low Complexity
Codec ID                                 : A_AAC-2
Duration                                 : 2 h 3 min
Bit rate                                 : 192 kb/s
Channel(s)                               : 2 channels
Channel layout                           : L R
Sampling rate                            : 48.0 kHz
Frame rate                               : 46.875 FPS (1024 SPF)
Compression mode                         : Lossy
Stream size                              : 167 MiB (12%)
Title                                    : [www.MoviezAddiction.xyz]
Language                                 : Hindi
Default                                  : Yes
Forced                                   : Yes
 
Text
ID                                       : 2
Format                                   : PGS
Muxing mode                              : zlib
Codec ID                                 : S_HDMV/PGS
Codec ID/Info                            : Picture based subtitle format used on BDs/HD-DVDs
Duration                                 : 2 h 1 min
Bit rate                                 : 31.7 kb/s
Count of elements                        : 3362
Stream size                              : 27.7 MiB (2%)
Title                                    : [www.MoviezAddiction.xyz]
Language                                 : English
Default                                  : Yes
Forced                                   : Yes
 
Menu
00:00:00.000                             : en:Don't Call Home
00:10:37.554                             : en:Squared Away
00:15:19.418                             : en:We're Americans
00:24:02.983                             : en:Please Be Careful
00:32:55.182                             : en:What They See
00:41:56.180                             : en:Band Of Brothers
00:47:04.071                             : en:Time To Go Home
00:55:31.119                             : en:Take A Seat
01:03:51.369                             : en:I Love You
01:12:44.193                             : en:Get Your Men!
01:19:51.787                             : en:Do It Smart
01:29:15.016                             : en:I Need Volunteers
01:35:39.776                             : en:Good Shot
01:42:10.374                             : en:The Lord's Work
01:45:06.217                             : en:Now Is The Time
01:54:08.383                             : en:End Credits